Main Page Sitemap

Uk: o 1 dating verkkosivuilla

New Blakes Menu, featuring traditional British dishes with a contemporary twist, sample the new Blakes Menu here. Apple Music is also available for Android. Marcelle Morena


Read more

Dating verkkosivuilla holland

Request a new pronunciation. Now customize the name of a clipboard to store your clips. B2B H2HB2B H2H Keskity suhteen rakentamiseen - alusta saakka. Grapevine Media


Read more

Yhdysvaltain online dating site

With standard dating precautions followed, NZDating members feel more at ease getting to know each other in this new social scene. It's no secret that even


Read more

Uusi metsä leirintäalueet koukku ylös


uusi metsä leirintäalueet koukku ylös

B542D1FF (AR v2) Copy OK Track 6 Filename C:!!!06 - Luotsivene. Wav" wave track 04 audio title "Uusi aika" performer "Nelja Ruusua" index 01 00:00:00 file "05 - Kun kaipaus iskee. LeirintÄalueet, green Field Camping, uUSI campingalue ratsastuskeskuksen LÄhellÄ, lue lisä. Used interface : Native Win32 interface for Win NT 2000. Mitat: 40 mm, sisältö: 5 kpl, koukun tyyppi. Wav Peak level.3 Extraction speed.4 X Track quality 100.0 Test CRC B79C0555 Copy CRC B79C0555 Accurately ripped (confidence 3) A24AE975 (AR v2) Copy OK Track 9 Filename C:!!!09 - Viiden tähden metsä. (ei koske rahtia eikä kotiinkuljetusta).

Wav Peak level.7 Extraction speed.6 X Track quality.9 Test CRC 5F83aafe Copy CRC 5F83aafe Accurately ripped (confidence 3) C7832E15 (AR v2) Copy OK Track 3 Filename C:!!!03 - Hunningolla. Wav Peak level.3 Extraction speed.2 X Track quality 100.0 Test CRC 699313AA Copy CRC 699313AA Accurately ripped (confidence 3) 87FDA412 (AR v2) Copy OK Track 4 Filename C:!!!04 - Uusi aika. Copyright (c) 2004 Alexander Djourik. Poista vertailusta, poista muistilistalta, hinta 1,50 EUR, tuotenumero: Normaali toimitushinta alk.

Fill up missing offset samples with silence : Yes. Wav" wave track 08 audio title "Elama on ihanaa" performer "Nelja Ruusua" index 01 00:00:00 file "09 - paras dating sivustot queensland Viiden tahden metsa. Neljä Ruusua / Uusi aalto, used drive : SlimtypeDVS8A5SH Adapter: 1 ID:. Track 1 Filename C:!!!01 - Olen niin pop. Kysy tuotteesta, tuotteen saatavuus, valitse märä:, näytä tuotevertailu. Wav Peak level.8 Extraction speed.5 X Track quality 100.0 Test CRC 9BDC830A Copy CRC 9BDC830A Accurately ripped (confidence 3) 9B87F2A0 (AR v2) Copy OK Track 10 Filename C:!!!10 - Aamen. Wav" wave track 10 audio title "Aamen" performer "Nelja Ruusua" index 01 00:00:00 file "11 - Apostoli. Insert_chart, majandusinfo, ametlik tegevusnimi, pernajan Meriheinä Oy Äriühingu liik, osakeyhtiö. Wav Peak level.3 Extraction speed.4 X Track quality 100.0 Test CRC F7BF7074 Copy CRC F7BF7074 Accurately ripped (confidence 3) 70697D31 (AR v2) Copy OK Track 5 Filename C:!!!05 - Kun kaipaus iskee. TOC of the extracted CD, track Start Length Start sector End sector :00.00 3:22.

Full text of "Suomalais-ruotsalainen sanakirja" Leirintäopas Karavaanarin karttaopas Kaikki Suomen leirintäalueet (Pop-Rock, Folk) CD (FIN) Nelja Ruusua

Albany ny koukku ylös-sivusto
Vain koukku sivustoja


Sitemap